V.A. - The colors of music by Kosmos FM (2CD 2002) - Free Download from Downor
Login

Access to the website

Username: :
Password :

  • Register Now !
    Forgot Password?
    New Download Links
    Speed
     kbps
     kbps
     kbps
    V.A. - The colors of music by Kosmos FM (2CD 2002)
    (votes: 25)


    Category: Musics | Author: alice | Date: 7-11-2013, 01:34



    V.A. - The colors of music by Kosmos FM (2CD, 2002)
    EAC Rip | FLAC (image & cue & log) & mp3 @ 320 kbps | tracks: 29 | Cover | 2:20:04 | ~ 911 Mb & 326 Mb
    Label: KOSMOS FM | 5% recovery record | World, folk

    Kosmos FM was a popular public greek radio station broadcasting quality world music on a 24/7 basis. Kosmos FM has released many albums with songs selected from the most popular world and folk hits of the year. This nice compilation was released in 2002 and includes songs with artists from all around the world. You will find new songs but also renditions of all time classics with an oriental, latin, african or chillout color. Enjoy a parade with the wonderful colors of music compiled by the connoisseurs of Kosmos FM.

    TRACKLIST

    CD01 (1:06:55 | ~ 456 Mb & 156 Mb)
    01. Angelique Kidjo - Summertime
    02. Salif Keita - Africa
    03. Baaba Maal - Africa Woman
    04. Vocal Samling - Mi Guantanamera
    05. Compay Segundo - Chan Chan
    06. Kad Achoury - Mi Negra
    07. Los Fabulosos Cadillacs - Rios De Lagrimas
    08. Rachid Taha - Ya Rayah
    09. Night Ark - Going With Abandon
    10. Mode Plagal - Pikrodafni
    11. Kronos Quartet - Misirlou Twist
    12. Khaled - Ragda
    13. Ernest Ranglin - Surfin
    14. Bob Marley - One Love

    CD02 (1:13:09 | ~ 455 Mb & 170 Mb)
    01. Nitin Sawhney - Aquired Dreams
    02. Bally Sagoo - Chura Liya
    03. Kabul Workshop - Trigana
    04. Greeks & Indians - Pirihios dance
    05. Petroloukas Halkias - Skaros
    06. Haig Yazdjian - Yar Ko Parag
    07. Bustan Abraham - Muwashah
    08. Savina Yiannatou - A. Lu Purtuni - The Door B. Pinguli Pinguli Giuvacchinu
    09. Kepa Junkera - Sodade
    10. Herbie Mann & Jao Gilberto with Antonio Carlos Jobim - Desafinado
    11. Olu Dara - Your Lips
    12. Dr John - Iko Iko
    13. Ismael Lo with Marianne Faithful - Without Blame
    14. Youssou N' Dour - Birima
    15. Ladysmith Black Mambazo with Paul Simon - Amazing Grace

    EAC log CD1
    Exact Audio Copy V1.0 beta 3 from 29. August 2011

    EAC extraction logfile from 29. October 2013, 20:13

    Kosmos FM - The Colours Of Music / Vol 1

    Used drive : HL-DT-STDVDRAM GH10N Adapter: 1 ID: 1

    Read mode : Secure
    Utilize accurate stream : Yes
    Defeat audio cache : Yes
    Make use of C2 pointers : No

    Read offset correction : 667
    Overread into Lead-In and Lead-Out : No
    Fill up missing offset samples with silence : Yes
    Delete leading and trailing silent blocks : No
    Null samples used in CRC calculations : Yes
    Used interface : Native Win32 interface for Win NT & 2000

    Used output format : User Defined Encoder
    Selected bitrate : 1024 kBit/s
    Quality : High
    Add ID3 tag : Yes
    Command line compressor : C:Program FilesExact Audio Copy NewFlacflac.exe
    Additional command line options : -V -5 -T "artist=%artist%" -T "title=%title%" -T "album=%albumtitle%" -T "tracknumber=%tracknr2%" -T "genre=%genre%" -5 %source%


    TOC of the extracted CD

    Track | Start | Length | Start sector | End sector
    ---------------------------------------------------------
    1 | 0:00.00 | 3:33.03 | 0 | 15977
    2 | 3:33.03 | 6:00.20 | 15978 | 42997
    3 | 9:33.23 | 6:07.34 | 42998 | 70556
    4 | 15:40.57 | 5:32.30 | 70557 | 95486
    5 | 21:13.12 | 5:28.44 | 95487 | 120130
    6 | 26:41.56 | 4:12.06 | 120131 | 139036
    7 | 30:53.62 | 2:54.54 | 139037 | 152140
    8 | 33:48.41 | 6:14.63 | 152141 | 180253
    9 | 40:03.29 | 4:39.16 | 180254 | 201194
    10 | 44:42.45 | 6:36.00 | 201195 | 230894
    11 | 51:18.45 | 4:15.04 | 230895 | 250023
    12 | 55:33.49 | 3:49.44 | 250024 | 267242
    13 | 59:23.18 | 4:09.55 | 267243 | 285972
    14 | 63:32.73 | 3:22.64 | 285973 | 301186


    Range status and errors

    Selected range

    Filename S:MUSICDownloadedKosmos - Τα Χρώματα Της Μουσικής 2002 n1nu flacVarious Artists - Kosmos - Τα Χρώματα Της Μουσικής - Disc 1 flacKosmos FM - The Colours Of Music - Vol 1.wav

    Peak level 97.7 %
    Extraction speed 6.1 X
    Range quality 100.0 %
    Test CRC B7313B9E
    Copy CRC B7313B9E
    Copy OK

    No errors occurred


    AccurateRip summary

    Track 1 not present in database
    Track 2 not present in database
    Track 3 not present in database
    Track 4 not present in database
    Track 5 not present in database
    Track 6 not present in database
    Track 7 not present in database
    Track 8 not present in database
    Track 9 not present in database
    Track 10 not present in database
    Track 11 cannot be verified as accurate (confidence 1) [CC8B5D4B], AccurateRip returned [C84081D1] (AR v2)
    Track 12 not present in database
    Track 13 not present in database
    Track 14 not present in database

    1 track(s) could not be verified as accurate
    13 track(s) not present in the AccurateRip database

    No tracks could be verified as accurate
    You may have a different pressing from the one(s) in the database

    End of status report

    ---- CUETools DB Plugin V2.1.3

    [CTDB TOCID: 8MbEFDKUjuQqbcJ9dilVv.nxjzE-] disk not present in database, Submit result: 8MbEFDKUjuQqbcJ9dilVv.nxjzE- has been uploaded


    ==== Log checksum 3190AF53130962DBDBBFD1CE195CBBA3876B45E71E95E1485428D1C8790DD3C4 ====

    EAC log CD2
    Exact Audio Copy V1.0 beta 3 from 29. August 2011

    EAC extraction logfile from 30. October 2013, 2:31

    Various Artists / Kosmos - Τα Χρώματα Της Μουσικής - Disc 2

    Used drive : HL-DT-STDVDRAM GH10N Adapter: 1 ID: 1

    Read mode : Secure
    Utilize accurate stream : Yes
    Defeat audio cache : Yes
    Make use of C2 pointers : No

    Read offset correction : 667
    Overread into Lead-In and Lead-Out : No
    Fill up missing offset samples with silence : Yes
    Delete leading and trailing silent blocks : No
    Null samples used in CRC calculations : Yes
    Used interface : Native Win32 interface for Win NT & 2000

    Used output format : User Defined Encoder
    Selected bitrate : 1024 kBit/s
    Quality : High
    Add ID3 tag : Yes
    Command line compressor : C:Program FilesExact Audio Copy NewFlacflac.exe
    Additional command line options : -V -5 -T "artist=%artist%" -T "title=%title%" -T "album=%albumtitle%" -T "tracknumber=%tracknr2%" -T "genre=%genre%" -5 %source%


    TOC of the extracted CD

    Track | Start | Length | Start sector | End sector
    ---------------------------------------------------------
    1 | 0:00.00 | 6:30.45 | 0 | 29294
    2 | 6:30.45 | 7:14.69 | 29295 | 61913
    3 | 13:45.39 | 6:57.07 | 61914 | 93195
    4 | 20:42.46 | 6:07.27 | 93196 | 120747
    5 | 26:49.73 | 3:49.13 | 120748 | 137935
    6 | 30:39.11 | 4:29.68 | 137936 | 158178
    7 | 35:09.04 | 6:10.20 | 158179 | 185948
    8 | 41:19.24 | 4:05.47 | 185949 | 204370
    9 | 45:24.71 | 6:21.58 | 204371 | 233003
    10 | 51:46.54 | 1:57.31 | 233004 | 241809
    11 | 53:44.10 | 3:59.01 | 241810 | 259735
    12 | 57:43.11 | 4:08.53 | 259736 | 278388
    13 | 61:51.64 | 4:23.35 | 278389 | 298148
    14 | 66:15.24 | 3:48.29 | 298149 | 315277
    15 | 70:03.53 | 3:05.57 | 315278 | 329209


    Range status and errors

    Selected range

    Filename S:MUSICDownloadedKosmos - Τα Χρώματα Της Μουσικής 2002 n1nu flacKosmosA2Various Artists - Kosmos - Τα Χρώματα Της Μουσικής - Disc 2.wav

    Peak level 97.7 %
    Extraction speed 6.3 X
    Range quality 100.0 %
    Test CRC 83D40B63
    Copy CRC 83D40B63
    Copy OK

    No errors occurred


    AccurateRip summary

    Track 1 not present in database
    Track 2 not present in database
    Track 3 not present in database
    Track 4 not present in database
    Track 5 not present in database
    Track 6 not present in database
    Track 7 not present in database
    Track 8 not present in database
    Track 9 not present in database
    Track 10 not present in database
    Track 11 not present in database
    Track 12 not present in database
    Track 13 not present in database
    Track 14 not present in database
    Track 15 not present in database

    None of the tracks are present in the AccurateRip database

    End of status report

    ---- CUETools DB Plugin V2.1.3

    [CTDB TOCID: LkvBf3FB5NblrR5XLlpI5ov48l4-] disk not present in database, Submit result: LkvBf3FB5NblrR5XLlpI5ov48l4- has been uploaded


    ==== Log checksum CA0D71B7517F34749CE28A2DE90A393AFACEB8AFAB2FEE63C7732D3CABD0AF58 ====

    Special thanks to the original publisher


    Va Edens Bar Lounge Music To Chill Out 2002 | Va Lounge Colors Finest Selection Of Cafe Chillout Bar Summer Music | Michel Bisceglia The Night And The Music 2002 | Die Verborgene Wirklichkeit Paralleluniversen Und Die Gesetze Des Kosmos | A Ha Music Box All Time Hits 1980 2002 2002 Flac | Ypoptos Kosmos | Star Trek No 6 O Agnostos Kosmos | Poniros Kosmos | Kosmos
    Comments: 0
    Views: 107

    Free Full Download V.A. - The colors of music by Kosmos FM (2CD 2002) form MediaFire.com link RapidShare, ifile.it, JUMBO Files, Uploaded.to, Zippyshare, FileSonic, turbobit.net, ul.to, ORON, DepositFiles, hotfile.com, rapidgator.net, letitbit.net, extabit.com, filefactory.com. V.A. - The colors of music by Kosmos FM (2CD 2002) Download Torrent with keygen, crack, serial, dvdrip, hdrip, 720p.
    Like the post? Check out these:
    Information
    Would you like to leave your comment? Please Login to your account to leave comments. Don't have an account? You can create a free account now.

    Dsf Performance Synthesizer Electronica, Dsf Performance Synthesizer Keyboards, Dsf E Mu Orbit, Are Endless, Nocturna, Tusk 2014, Google Blogger, Tokyo Tribe, What We Do In The Shadows, Aodbe Photoshop